The Spirit (2008).1080p.H264.italian.english.Ac3-5.1.sub.ita.eng-...

  • Category Movies
  • Type HD
  • Language English
  • Total size 2.3 GB
  • Uploaded By robbyrs
  • Downloads 1
  • Last checked 7 minutes ago
  • Date uploaded 7 minutes ago
  • Seeders 0
  • Leechers 0

Infohash : 2A492FA176AD7B98A5C9C3B9D8C7E930BA03F5A6

The Spirit (2008).1080p.H264.italian.english.Ac3-5.1.sub.ita.eng-MIRCrew


NO FOUND ONLY ORIGINAL RELEASE

My release is always in double track audio italian and Original audio
for select it use VLC or dvd player home
not use wmp

The Spirit (2008)

Quality MIRCrew on HD 1080p da 2,3 gb







Lingua originale inglese
Paese di produzione Stati Uniti d'America
Anno 2008
Durata 102 min
Genere azione, noir, avventura, thriller
Regia Frank Miller
Soggetto dal fumetto di Will Eisner
Sceneggiatura Frank Miller



Gabriel Macht: Denny Colt/The Spirit
Samuel L. Jackson: Octopus
Scarlett Johansson: Silken Floss
Eva Mendes: Sand Saref
Sarah Paulson: Ellen Dolan
Jaime King: Lorelei Rox
Richard Portnow: Donnenfeld
Louis Lombardi: Phobos
Eric Balfour: Mahmoud
Stana Katic: Morgenstern
Paz Vega: Plaster of Paris



Denny Colt/The Spirit vigila sulla sua amata città difendendola da ladri, criminali comuni, e dalla sua nemesi, Octopus. Il villain è ossessionato da Spirit poiché essi sono in qualche modo simili, apparentemente immortali. A complicare il tutto arriva una femme fatale Sand Saref ossessionata dalla ricchezza e da qualsiasi cosa luccichi



Down these mean streets a man must come. A hero born, murdered, and born again. When a Rookie cop named Denny Colt returns from the beyond as The Spirit, a hero whose mission is to fight against the bad forces from the shadows of Central City. The Octopus who kills anyone unfortunate enough to see his face who has other plans









General
Unique ID : 249246703200895855875712214166539562425 (0xBB832B3E910BB7BE99DD4DB75AC36DB9)
Complete name : The Spirit (2008).1080p.H264.ita.eng.sub.ita.eng.MIRCrew\The Spirit (2008).1080p.H264.ita.eng.sub.ita.eng.MIRCrew.mkv
Format : Matroska
Format version : Version 2
File size : 2.31 GiB
Duration : 1h 42mn
Overall bit rate : 3 216 Kbps
Movie name : MIRCrew
Encoded date : UTC 2018-12-03 17:14:16
Writing application : mkvmerge v5.4.0 ('Piper') built on Mar 10 2012 13:34:39
Writing library : libebml v1.2.3 + libmatroska v1.3.0

Video
ID : 1
Format : AVC
Format/Info : Advanced Video Codec
Format profile : [email protected]
Format settings, CABAC : Yes
Format settings, ReFrames : 4 frames
Codec ID : V_MPEG4/ISO/AVC
Duration : 1h 42mn
Bit rate : 2 500 Kbps
Width : 1 920 pixels
Height : 800 pixels
Display aspect ratio : 2.40:1
Frame rate : 23.976 fps
Color space : YUV
Chroma subsampling : 4:2:0
Bit depth : 8 bits
Scan type : Progressive
Bits/(Pixel*Frame) : 0.068
Stream size : 1.71 GiB (74%)
Title : MIRCrew
Writing library : x264 core 152 r2851M ba24899
Encoding settings : cabac=1 / ref=4 / deblock=1:-1:-1 / analyse=0x3:0x113 / me=umh / subme=9 / psy=1 / psy_rd=1.00:0.15 / mixed_ref=1 / me_range=24 / chroma_me=1 / trellis=2 / 8x8dct=1 / cqm=0 / deadzone=21,11 / fast_pskip=1 / chroma_qp_offset=-3 / threads=32 / lookahead_threads=4 / sliced_threads=0 / nr=0 / decimate=1 / interlaced=0 / bluray_compat=0 / constrained_intra=0 / bframes=3 / b_pyramid=2 / b_adapt=2 / b_bias=0 / direct=3 / weightb=1 / open_gop=0 / weightp=2 / keyint=250 / keyint_min=25 / scenecut=40 / intra_refresh=0 / rc_lookahead=50 / rc=2pass / mbtree=1 / bitrate=2500 / ratetol=1.0 / qcomp=0.60 / qpmin=0 / qpmax=69 / qpstep=4 / cplxblur=20.0 / qblur=0.5 / vbv_maxrate=31250 / vbv_bufsize=31250 / nal_hrd=none / filler=0 / ip_ratio=1.40 / aq=3:1.00
Language : Italian
Default : Yes
Forced : No

Audio #1
ID : 2
Format : AC-3
Format/Info : Audio Coding 3
Mode extension : CM (complete main)
Codec ID : A_AC3
Duration : 1h 42mn
Bit rate mode : Constant
Bit rate : 384 Kbps
Channel(s) : 6 channels
Channel positions : Front: L C R, Side: L R, LFE
Sampling rate : 48.0 KHz
Bit depth : 16 bits
Compression mode : Lossy
Stream size : 282 MiB (12%)
Title : Ita Ac3 5.1
Language : Italian
Default : Yes
Forced : No

Audio #2
ID : 3
Format : AC-3
Format/Info : Audio Coding 3
Mode extension : CM (complete main)
Codec ID : A_AC3
Duration : 1h 42mn
Bit rate mode : Constant
Bit rate : 384 Kbps
Channel(s) : 6 channels
Channel positions : Front: L C R, Side: L R, LFE
Sampling rate : 48.0 KHz
Bit depth : 16 bits
Compression mode : Lossy
Stream size : 282 MiB (12%)
Title : Eng Ac3 5.1
Language : English
Default : No
Forced : No


Files:

The Spirit (2008).1080p.H264.ita.eng.sub.ita.eng.MIRCrew
  • BY MIRCrew.txt (0.1 KB)
  • The Spirit (2008).1080p.H264.ita.eng.sub.ita.eng.MIRCrew.eng.srt (87.7 KB)
  • The Spirit (2008).1080p.H264.ita.eng.sub.ita.eng.MIRCrew.ita.srt (146.0 KB)
  • The Spirit (2008).1080p.H264.ita.eng.sub.ita.eng.MIRCrew.mkv (2.3 GB)

There are currently no comments. Feel free to leave one :)

Code:

  • udp://tracker.coppersurfer.tk:6969/announce
  • udp://tracker.torrent.eu.org:451/announce
  • udp://tracker.pirateparty.gr:6969/announce
  • udp://tracker.opentrackr.org:1337/announce
  • udp://tracker.leechers-paradise.org:6969/announce
  • udp://tracker.eddie4.nl:6969/announce
  • udp://shadowshq.yi.org:6969/announce
  • udp://shadowshq.eddie4.nl:6969/announce
  • udp://inferno.demonoid.pw:3391/announce
  • udp://eddie4.nl:6969/announce
  • udp://9.rarbg.to:2730/announce
  • udp://9.rarbg.com:2710/announce
  • udp://9.rarbg.me:2780/announce
  • udp://62.138.0.158:6969/announce
  • udp://151.80.120.114:2710/announce
SitemapSpanish Present Tense Regular Verbs Conjugation | Haier Porters Five Forces and BCG Analysis 2018 Free Last updated on: 2018-09-28 | 模拟人生4origin无法运作解决方法 أفلام كرتون 88 انيميشن HDRip مشاهدة و تحميل فيلم الانيميشن Jurassic Bark 2018 مترجم اون لاين | Eps57 Days of Our Lives - Season 54 | More Details