Mission Impossible Fallout (2018) IMAX (1080p BluRay x265 10bit A...

  • Category Movies
  • Type HEVC/x265
  • Language English
  • Total size 2.0 GB
  • Uploaded By UTRCorp
  • Downloads 174
  • Last checked 46 minutes ago
  • Date uploaded 23 hours ago
  • Seeders 21
  • Leechers 19

Mission: Impossible - Fallout

AdventureActionThriller

When an IMF mission ends badly, the world is faced with dire consequences. As Ethan Hunt takes it upon himself to fulfil his original briefing, the CIA begin to question his loyalty and his motives. The IMF team find themselves in a race against time, hunted by assassins while trying to prevent a global catastrophe.

Infohash : 9975412DC0398816AF3A3F3BB99500965D3B35DA








Media Information

Media Information


Code:

General
Format                                   : Matroska
Format version                           : Version 4 / Version 2
File size                                : 2.01 GiB
Duration                                 : 2 h 27 min
Overall bit rate                         : 1 952 kb/s
Movie name                               : Mission Impossible Fallout 2018 IMAX  (1080p x265 10bit S73 Joy)[UTR]
Encoded date                             : UTC 2018-12-06 02:25:03
Writing application                      : mkvmerge v28.1.0 ('Morning Child') 64-bit
Writing library                          : libebml v1.3.6 + libmatroska v1.4.9
Cover                                    : Yes
Attachments                              : cover.jpg
Writing frontend                         : StaxRip v1.8.2.0, Encoded by JoyBell

Video
ID                                       : 1
Format                                   : HEVC
Format/Info                              : High Efficiency Video Coding
Format profile                           : Main [email protected]@Main
Codec ID                                 : V_MPEGH/ISO/HEVC
Duration                                 : 2 h 27 min
Bit rate                                 : 1 498 kb/s
Width                                    : 1 920 pixels
Height                                   : 1 008 pixels
Display aspect ratio                     : 1.905
Frame rate mode                          : Constant
Frame rate                               : 23.976 (24000/1001) FPS
Color space                              : YUV
Chroma subsampling                       : 4:2:0
Bit depth                                : 10 bits
Bits/(Pixel*Frame)                       : 0.032
Stream size                              : 1.54 GiB (77%)
Writing library                          : x265 2.8+19-bcdc610cf5f0:[Windows][MSVC 1914][64 bit] 10bit
Encoding settings                        : cpuid=1111039 / frame-threads=4 / numa-pools=16 / wpp / no-pmode / no-pme / no-psnr / ssim / log-level=2 / input-csp=1 / input-res=1920x1008 / interlace=0 / total-frames=212066 / level-idc=0 / high-tier=1 / uhd-bd=0 / ref=4 / no-allow-non-conformance / no-repeat-headers / annexb / no-aud / no-hrd / info / hash=0 / no-temporal-layers / open-gop / min-keyint=23 / keyint=250 / gop-lookahead=0 / bframes=4 / b-adapt=2 / b-pyramid / bframe-bias=0 / rc-lookahead=80 / lookahead-slices=4 / scenecut=40 / radl=0 / no-intra-refresh / ctu=64 / min-cu-size=8 / rect / no-amp / max-tu-size=32 / tu-inter-depth=1 / tu-intra-depth=1 / limit-tu=0 / rdoq-level=2 / dynamic-rd=0.00 / ssim-rd / signhide / no-tskip / nr-intra=0 / nr-inter=0 / no-constrained-intra / strong-intra-smoothing / max-merge=3 / limit-refs=3 / limit-modes / me=3 / subme=3 / merange=57 / temporal-mvp / weightp / no-weightb / no-analyze-src-pics / deblock=0:0 / sao / no-sao-non-deblock / rd=4 / no-early-skip / rskip / no-fast-intra / no-tskip-fast / no-cu-lossless / no-b-intra / no-splitrd-skip / rdpenalty=0 / psy-rd=0.00 / psy-rdoq=1.00 / no-rd-refine / no-lossless / cbqpoffs=0 / crqpoffs=0 / rc=abr / bitrate=1500 / qcomp=0.60 / qpstep=4 / stats-write=0 / stats-read=2 / cplxblur=20.0 / qblur=0.5 / vbv-maxrate=4500 / vbv-bufsize=9000 / vbv-init=0.9 / ipratio=1.40 / pbratio=1.30 / aq-mode=2 / aq-strength=0.80 / cutree / zone-count=0 / no-strict-cbr / qg-size=32 / no-rc-grain / qpmax=69 / qpmin=0 / no-const-vbv / sar=0 / overscan=0 / videoformat=5 / range=0 / colorprim=2 / transfer=2 / colormatrix=2 / chromaloc=0 / display-window=0 / max-cll=0,0 / min-luma=0 / max-luma=1023 / log2-max-poc-lsb=8 / vui-timing-info / vui-hrd-info / slices=1 / no-opt-qp-pps / no-opt-ref-list-length-pps / multi-pass-opt-rps / scenecut-bias=0.05 / no-opt-cu-delta-qp / no-aq-motion / no-hdr / no-hdr-opt / no-dhdr10-opt / no-idr-recovery-sei / analysis-reuse-level=10 / scale-factor=0 / refine-intra=0 / refine-inter=0 / refine-mv=0 / limit-sao / ctu-info=0 / no-lowpass-dct / refine-mv-type=0 / copy-pic=1 / max-ausize-factor=1.0 / no-dynamic-refine / no-single-sei
Default                                  : Yes
Forced                                   : No

Audio
ID                                       : 2
Format                                   : AAC
Format/Info                              : Advanced Audio Codec
Format profile                           : LC
Codec ID                                 : A_AAC
Duration                                 : 2 h 27 min
Bit rate                                 : 353 kb/s
Channel(s)                               : 7 channels
Channel(s)_Original                      : 8 channels
Channel positions                        : Front: L C R, Side: L R, Back: L R, LFE
Sampling rate                            : 48.0 kHz
Frame rate                               : 46.875 FPS (1024 spf)
Compression mode                         : Lossy
Delay relative to video                  : 9 ms
Stream size                              : 370 MiB (18%)
Language                                 : English
Default                                  : Yes
Forced                                   : No

Subtitle #1
ID                                       : 3
Format                                   : PGS
Muxing mode                              : zlib
Codec ID                                 : S_HDMV/PGS
Codec ID/Info                            : Picture based subtitle format used on BDs/HD-DVDs
Duration                                 : 2 h 19 min
Bit rate                                 : 28.4 kb/s
Count of elements                        : 3111
Stream size                              : 28.3 MiB (1%)
Language                                 : English
Default                                  : No
Forced                                   : No

Subtitle #2
ID                                       : 4
Format                                   : UTF-8
Codec ID                                 : S_TEXT/UTF8
Codec ID/Info                            : UTF-8 Plain Text
Duration                                 : 2 h 19 min
Bit rate                                 : 46 b/s
Count of elements                        : 1566
Stream size                              : 47.1 KiB (0%)
Language                                 : English
Default                                  : No
Forced                                   : No

Subtitle #3
ID                                       : 5
Format                                   : UTF-8
Codec ID                                 : S_TEXT/UTF8
Codec ID/Info                            : UTF-8 Plain Text
Duration                                 : 2 h 19 min
Bit rate                                 : 52 b/s
Count of elements                        : 1872
Stream size                              : 53.7 KiB (0%)
Language                                 : English
Default                                  : No
Forced                                   : No

Subtitle #4
ID                                       : 6
Format                                   : VobSub
Muxing mode                              : zlib
Codec ID                                 : S_VOBSUB
Codec ID/Info                            : Picture based subtitle format used on DVDs
Duration                                 : 2 h 19 min
Bit rate                                 : 8 116 b/s
Count of elements                        : 1558
Stream size                              : 8.08 MiB (0%)
Language                                 : English
Default                                  : No
Forced                                   : No

Subtitle #5
ID                                       : 7
Format                                   : VobSub
Muxing mode                              : zlib
Codec ID                                 : S_VOBSUB
Codec ID/Info                            : Picture based subtitle format used on DVDs
Duration                                 : 2 h 19 min
Bit rate                                 : 9 667 b/s
Count of elements                        : 1876
Stream size                              : 9.63 MiB (0%)
Language                                 : English
Default                                  : No
Forced                                   : No

Subtitle #6
ID                                       : 8
Format                                   : VobSub
Muxing mode                              : zlib
Codec ID                                 : S_VOBSUB
Codec ID/Info                            : Picture based subtitle format used on DVDs
Duration                                 : 2 h 26 min
Bit rate                                 : 6 801 b/s
Count of elements                        : 1134
Stream size                              : 7.14 MiB (0%)
Language                                 : Danish
Default                                  : No
Forced                                   : No

Subtitle #7
ID                                       : 9
Format                                   : VobSub
Muxing mode                              : zlib
Codec ID                                 : S_VOBSUB
Codec ID/Info                            : Picture based subtitle format used on DVDs
Duration                                 : 2 h 26 min
Bit rate                                 : 7 456 b/s
Count of elements                        : 1421
Stream size                              : 7.82 MiB (0%)
Language                                 : Spanish
Default                                  : No
Forced                                   : No

Subtitle #8
ID                                       : 10
Format                                   : VobSub
Muxing mode                              : zlib
Codec ID                                 : S_VOBSUB
Codec ID/Info                            : Picture based subtitle format used on DVDs
Duration                                 : 2 h 26 min
Bit rate                                 : 7 247 b/s
Count of elements                        : 1402
Stream size                              : 7.61 MiB (0%)
Language                                 : Spanish
Default                                  : No
Forced                                   : No

Subtitle #9
ID                                       : 11
Format                                   : VobSub
Muxing mode                              : zlib
Codec ID                                 : S_VOBSUB
Codec ID/Info                            : Picture based subtitle format used on DVDs
Duration                                 : 2 h 26 min
Bit rate                                 : 6 161 b/s
Count of elements                        : 1450
Stream size                              : 6.47 MiB (0%)
Language                                 : French
Default                                  : No
Forced                                   : No

Subtitle #10
ID                                       : 12
Format                                   : VobSub
Muxing mode                              : zlib
Codec ID                                 : S_VOBSUB
Codec ID/Info                            : Picture based subtitle format used on DVDs
Duration                                 : 2 h 26 min
Bit rate                                 : 7 642 b/s
Count of elements                        : 1670
Stream size                              : 8.02 MiB (0%)
Language                                 : French
Default                                  : No
Forced                                   : No

Subtitle #11
ID                                       : 13
Format                                   : VobSub
Muxing mode                              : zlib
Codec ID                                 : S_VOBSUB
Codec ID/Info                            : Picture based subtitle format used on DVDs
Duration                                 : 2 h 26 min
Bit rate                                 : 6 651 b/s
Count of elements                        : 1177
Stream size                              : 6.98 MiB (0%)
Language                                 : Dutch
Default                                  : No
Forced                                   : No

Subtitle #12
ID                                       : 14
Format                                   : VobSub
Muxing mode                              : zlib
Codec ID                                 : S_VOBSUB
Codec ID/Info                            : Picture based subtitle format used on DVDs
Duration                                 : 2 h 26 min
Bit rate                                 : 6 706 b/s
Count of elements                        : 1395
Stream size                              : 7.04 MiB (0%)
Language                                 : Norwegian Bokmal
Default                                  : No
Forced                                   : No

Subtitle #13
ID                                       : 15
Format                                   : VobSub
Muxing mode                              : zlib
Codec ID                                 : S_VOBSUB
Codec ID/Info                            : Picture based subtitle format used on DVDs
Duration                                 : 2 h 26 min
Bit rate                                 : 6 026 b/s
Count of elements                        : 1378
Stream size                              : 6.32 MiB (0%)
Language                                 : Portuguese
Default                                  : No
Forced                                   : No

Subtitle #14
ID                                       : 16
Format                                   : VobSub
Muxing mode                              : zlib
Codec ID                                 : S_VOBSUB
Codec ID/Info                            : Picture based subtitle format used on DVDs
Duration                                 : 2 h 26 min
Bit rate                                 : 6 939 b/s
Count of elements                        : 1577
Stream size                              : 7.28 MiB (0%)
Language                                 : Finnish
Default                                  : No
Forced                                   : No

Subtitle #15
ID                                       : 17
Format                                   : VobSub
Muxing mode                              : zlib
Codec ID                                 : S_VOBSUB
Codec ID/Info                            : Picture based subtitle format used on DVDs
Duration                                 : 2 h 26 min
Bit rate                                 : 6 735 b/s
Count of elements                        : 1382
Stream size                              : 7.07 MiB (0%)
Language                                 : Swedish
Default                                  : No
Forced                                   : No

Subtitle #16
ID                                       : 18
Format                                   : VobSub
Muxing mode                              : zlib
Codec ID                                 : S_VOBSUB
Codec ID/Info                            : Picture based subtitle format used on DVDs
Duration                                 : 2 h 21 min
Bit rate                                 : 11.5 kb/s
Count of elements                        : 1831
Stream size                              : 11.6 MiB (1%)
Language                                 : English
Default                                  : No
Forced                                   : No

Subtitle #17
ID                                       : 19
Format                                   : VobSub
Muxing mode                              : zlib
Codec ID                                 : S_VOBSUB
Codec ID/Info                            : Picture based subtitle format used on DVDs
Duration                                 : 2 h 27 min
Bit rate                                 : 10.3 kb/s
Count of elements                        : 1832
Stream size                              : 10.9 MiB (1%)
Language                                 : Spanish
Default                                  : No
Forced                                   : No

Subtitle #18
ID                                       : 20
Format                                   : VobSub
Muxing mode                              : zlib
Codec ID                                 : S_VOBSUB
Codec ID/Info                            : Picture based subtitle format used on DVDs
Duration                                 : 2 h 27 min
Bit rate                                 : 11.1 kb/s
Count of elements                        : 1832
Stream size                              : 11.6 MiB (1%)
Language                                 : Spanish
Default                                  : No
Forced                                   : No

Subtitle #19
ID                                       : 21
Format                                   : VobSub
Muxing mode                              : zlib
Codec ID                                 : S_VOBSUB
Codec ID/Info                            : Picture based subtitle format used on DVDs
Duration                                 : 2 h 27 min
Bit rate                                 : 11.3 kb/s
Count of elements                        : 1829
Stream size                              : 12.0 MiB (1%)
Language                                 : French
Default                                  : No
Forced                                   : No

Subtitle #20
ID                                       : 22
Format                                   : VobSub
Muxing mode                              : zlib
Codec ID                                 : S_VOBSUB
Codec ID/Info                            : Picture based subtitle format used on DVDs
Duration                                 : 2 h 27 min
Bit rate                                 : 11.3 kb/s
Count of elements                        : 1832
Stream size                              : 11.9 MiB (1%)
Language                                 : French
Default                                  : No
Forced                                   : No

Subtitle #21
ID                                       : 23
Format                                   : VobSub
Muxing mode                              : zlib
Codec ID                                 : S_VOBSUB
Codec ID/Info                            : Picture based subtitle format used on DVDs
Duration                                 : 2 h 27 min
Bit rate                                 : 10.8 kb/s
Count of elements                        : 1832
Stream size                              : 11.3 MiB (1%)
Language                                 : Portuguese
Default                                  : No
Forced                                   : No

Subtitle #22
ID                                       : 24
Format                                   : UTF-8
Codec ID                                 : S_TEXT/UTF8
Codec ID/Info                            : UTF-8 Plain Text
Duration                                 : 2 h 20 min
Bit rate                                 : 67 b/s
Count of elements                        : 1223
Stream size                              : 69.5 KiB (0%)
Language                                 : Arabic
Default                                  : No
Forced                                   : No

Subtitle #23
ID                                       : 25
Format                                   : UTF-8
Codec ID                                 : S_TEXT/UTF8
Codec ID/Info                            : UTF-8 Plain Text
Duration                                 : 2 h 26 min
Bit rate                                 : 36 b/s
Count of elements                        : 1433
Stream size                              : 39.2 KiB (0%)
Language                                 : Chinese
Default                                  : No
Forced                                   : No

Subtitle #24
ID                                       : 26
Format                                   : UTF-8
Codec ID                                 : S_TEXT/UTF8
Codec ID/Info                            : UTF-8 Plain Text
Duration                                 : 2 h 27 min
Bit rate                                 : 71 b/s
Count of elements                        : 1385
Stream size                              : 77.1 KiB (0%)
Language                                 : Persian
Default                                  : No
Forced                                   : No

Subtitle #25
ID                                       : 27
Format                                   : UTF-8
Codec ID                                 : S_TEXT/UTF8
Codec ID/Info                            : UTF-8 Plain Text
Duration                                 : 2 h 26 min
Bit rate                                 : 44 b/s
Count of elements                        : 1563
Stream size                              : 48.2 KiB (0%)
Language                                 : German
Default                                  : No
Forced                                   : No

Subtitle #26
ID                                       : 28
Format                                   : UTF-8
Codec ID                                 : S_TEXT/UTF8
Codec ID/Info                            : UTF-8 Plain Text
Duration                                 : 2 h 20 min
Bit rate                                 : 63 b/s
Count of elements                        : 1357
Stream size                              : 65.1 KiB (0%)
Language                                 : Hebrew
Default                                  : No
Forced                                   : No

Subtitle #27
ID                                       : 29
Format                                   : UTF-8
Codec ID                                 : S_TEXT/UTF8
Codec ID/Info                            : UTF-8 Plain Text
Duration                                 : 2 h 25 min
Bit rate                                 : 94 b/s
Count of elements                        : 1590
Stream size                              : 102 KiB (0%)
Language                                 : Indonesian
Default                                  : No
Forced                                   : No

Subtitle #28
ID                                       : 30
Format                                   : UTF-8
Codec ID                                 : S_TEXT/UTF8
Codec ID/Info                            : UTF-8 Plain Text
Duration                                 : 2 h 27 min
Bit rate                                 : 91 b/s
Count of elements                        : 1386
Stream size                              : 98.7 KiB (0%)
Language                                 : Thai
Default                                  : No
Forced                                   : No

Subtitle #29
ID                                       : 31
Format                                   : UTF-8
Codec ID                                 : S_TEXT/UTF8
Codec ID/Info                            : UTF-8 Plain Text
Duration                                 : 2 h 19 min
Bit rate                                 : 48 b/s
Count of elements                        : 1292
Stream size                              : 49.4 KiB (0%)
Language                                 : Turkish
Default                                  : No
Forced                                   : No

Subtitle #30
ID                                       : 32
Format                                   : UTF-8
Codec ID                                 : S_TEXT/UTF8
Codec ID/Info                            : UTF-8 Plain Text
Duration                                 : 2 h 19 min
Bit rate                                 : 64 b/s
Count of elements                        : 1549
Stream size                              : 66.3 KiB (0%)
Language                                 : Vietnamese
Default                                  : No
Forced                                   : No

Menu
00:00:00.000                             : :Chapter 1
00:10:37.011                             : :Chapter 2
00:17:11.405                             : :Chapter 3
00:26:57.240                             : :Chapter 4
00:35:56.654                             : :Chapter 5
00:49:18.413                             : :Chapter 6
01:00:00.805                             : :Chapter 7
01:10:23.719                             : :Chapter 8
01:17:07.289                             : :Chapter 9
01:28:28.469                             : :Chapter 10
01:39:09.652                             : :Chapter 11
01:46:26.546                             : :Chapter 12
01:55:45.563                             : :Chapter 13
02:03:10.591                             : :Chapter 14
02:14:00.907                             : :Chapter 15
02:19:48.088                             : :Chapter 16



Source Information


Code:

Release:
Mission.Impossible.Fallout.2018.IMAX.2160p.BluRay.x265.10bit.SDR.DTS-HD.MA.TrueHD.7.1.Atmos-SWTYBLZ.mkv (72.25 GBs)



We have no issue with individuals posting or re-uploading our torrents on a platform we aren't on. However, if this is something you'd like to do, please do so in a 'as-is' format. We ask that you do not create a new torrent, include all descriptions you see above including the UTR logo, tags, notes and screenshots. If you'd like to become a permanent poster on a website we don't post to, feel free to get in contact with a UniTeam member.

Files:

  • Mission Impossible Fallout 2018 IMAX (1080p x265 10bit S73 Joy).mkv (2.0 GB)

There are currently no comments. Feel free to leave one :)

Code:

  • udp://mgtracker.org:6969/announce
  • udp://tracker.coppersurfer.tk:6969/announce
  • udp://9.rarbg.com:2710/announce
  • udp://9.rarbg.to:2710/announce
  • udp://tracker.mgtracker.org:2710/announce
  • udp://public.popcorn-tracker.org:6969/announce
  • udp://tracker.torrent.eu.org:451/announce
  • udp://exodus.desync.com:6969/announce
  • udp://tracker.tiny-vps.com:6969/announce
  • udp://tracker.torrent.eu.org:451/announce
  • udp://open.demonii.si:1337/announce
  • udp://tracker.opentrackr.org:1337/announce
SitemapTITANPACK Le journal de mickey de 1952 à 2017vues: 3347 Aventure | 0 Comments | Somebody Feed Phil (2) Supernatural S14E08 HDTV x264-SVA[eztv] | Featured | Frontier.S02.German.DD51.DL.2160p.NetflixUHD.x264-TVS