Intensive Care 2018 720p WEB-DL x264 ESub [MW]

  • Category Movies
  • Type HD
  • Language English
  • Total size 854.9 MB
  • Uploaded By moviezworldz
  • Downloads 455
  • Last checked 8 minutes ago
  • Date uploaded 19 hours ago
  • Seeders 63
  • Leechers 53

Intensive Care

ActionCrimeHorror

Three low-life criminals attempt to rob an elderly dying woman's home, but her live-in nurse turns out to be much more trouble than they bargained for.

Infohash : BB61C9167B104C368E5B4A6FE55860DFA425A181





General
Format : Matroska
Format version : Version 4 / Version 2
File size : 855 MiB
Duration : 1 h 19 min
Overall bit rate : 1 496 kb/s

Video
ID : 1
Format : AVC
Format/Info : Advanced Video Codec
Format profile : [email protected]
Format settings : CABAC / 4 Ref Frames
Format settings, CABAC : Yes
Format settings, RefFrames : 4 frames
Codec ID : V_MPEG4/ISO/AVC
Duration : 1 h 19 min
Bit rate : 1 400 kb/s
Width : 1 280 pixels
Height : 720 pixels
Display aspect ratio : 16:9
Frame rate mode : Constant
Frame rate : 24.000 FPS
Color space : YUV
Chroma subsampling : 4:2:0
Bit depth : 8 bits
Scan type : Progressive
Bits/(Pixel*Frame) : 0.063
Stream size : 789 MiB (92%)
Writing library : x264 core 155 r2901 7d0ff22
Default : Yes
Forced : No

Audio
ID : 2
Format : AAC
Format/Info : Advanced Audio Codec
Format profile : LC
Codec ID : A_AAC-2
Duration : 1 h 19 min
Bit rate : 112 kb/s
Channel(s) : 2 channels
Channel positions : Front: L R
Sampling rate : 48.0 kHz
Frame rate : 46.875 FPS (1024 SPF)
Compression mode : Lossy
Stream size : 64.2 MiB (8%)
Language : English
Default : Yes
Forced : No

Text
ID : 3
Format : UTF-8
Codec ID : S_TEXT/UTF8
Codec ID/Info : UTF-8 Plain Text
Duration : 1 h 17 min
Bit rate : 55 b/s
Count of elements : 1351
Stream size : 31.3 KiB (0%)
Language : English
Default : Yes
Forced : No


Click To Enlarge Image







Files:

Intensive Care 2018 720p WEB-DL x264 ESub [MW]
  • Intensive Care 2018 720p WEB-DL x264 ESub [MW].mkv (854.9 MB)

There are currently no comments. Feel free to leave one :)

Code:

  • udp://tracker.coppersurfer.tk:6969/announce
  • udp://tracker.pirateparty.gr:6969/announce
  • udp://tracker.coppersurfer.tk:6969/announce
  • udp://tracker.tiny-vps.com:6969/announce
  • udp://9.rarbg.me:2740/announce
  • udp://9.rarbg.to:2790/announce
  • udp://public.popcorn-tracker.org:6969/announce
  • udp://tracker.vanitycore.co:6969/announce
  • udp://tracker.opentrackr.org:1337/announce
  • udp://open.stealth.si:80/announce
SitemapParagraph on Holi | Unduh APK | Vedi Prodotto ID-0 Subtitle Indonesia | Read More... | El ministerio del tiempo 1x01 El ministerio del tiempo 1x01