Venom (2018) Hindi Dubbed 720p HD-TS Clean Audio x264 AAC 800MB -...

  • Category Movies
  • Type Dubs/Dual Audio
  • Language Hindi
  • Total size 799.9 MB
  • Uploaded By BDMovieHD
  • Downloads 401
  • Last checked 17 minutes ago
  • Date uploaded 1 hour ago
  • Seeders 21
  • Leechers 157

Venom

HorrorScience FictionActionThriller

When Eddie Brock acquires the powers of a symbiote, he will have to release his alter-ego “Venom” to save his life.

Infohash : DDC3AC9758FBFB1CA1E553F6130DB935257ACE72

New Latest HD Movies Download Link :- http://skymovieshd.in
***********************************






General
Format : Matroska
Format version : Version 4 / Version 2
File size : 2.55 GiB
Duration : 1 h 31 min
Overall bit rate mode : Variable
Overall bit rate : 3 963 kb/s
Movie name : Venom (2018) 720p HD-TS Hindi Dubbed ~SkyMoviesHD Team
Video
ID : 1
Format : AVC
Format/Info : Advanced Video Codec
Duration : 1 h 31 min
Bit rate mode : Variable
Bit rate : 3 835 kb/s
Maximum bit rate : 4 000 kb/s
Width : 1 280 pixels
Height : 544 pixels
Display aspect ratio : 2.35:1
Frame rate mode : Constant
Frame rate : 23.976 (24000/1001) FPS
Standard : Component
Color space : YUV
Chroma subsampling : 4:2:0
Bit depth : 8 bits
Scan type : Progressive
Bits/(Pixel*Frame) : 0.230
Stream size : 2.46 GiB (97%)
Title : ~Ranvijay
Language : English
Default : Yes
Forced : No

Audio
ID : 2
Format : AAC
Format/Info : Advanced Audio Codec
Format profile : LC
Codec ID : A_AAC-2
Duration : 1 h 31 min
Bit rate : 128 kb/s
Channel(s) : 2 channels
Channel positions : Front: L R
Sampling rate : 48.0 kHz
Frame rate : 46.875 FPS (1024 SPF)
Compression mode : Lossy
Stream size : 84.1 MiB (3%)
Title : ~Ranvijay
Language : Hindi
Default : Yes
Forced : Yes








New Latest HD Movies Download Link :- http://skymovieshd.in
***********************************

Files:

  • Venom (2018) HD-TS 720p Hindi Dubbed (Clean Audio) x264 -SkymoviesHD.in.mkv (799.9 MB)

There are currently no comments. Feel free to leave one :)

Code:

  • udp://tracker.coppersurfer.tk:6969/announce
  • udp://tracker.pirateparty.gr:6969/announce
  • udp://shadowshq.yi.org:6969/announce
  • udp://bt.firebit.co.uk:6969/announce
  • udp://public.popcorn-tracker.org:6969/announce
  • udp://tracker.opentrackr.org:1337/announce
  • udp://tracker.tiny-vps.com:6969/announce
  • udp://open.demonii.si:1337/announce
  • udp://open.stealth.si:80/announce
  • udp://tracker.vanitycore.co:6969/announce
  • udp://bt.xxx-tracker.com:2710/announce
  • udp://9.rarbg.com:2710/announce
  • udp://p4p.arenabg.com:1337
  • udp://TRACKER.ZER0DAY.TO:1337/ANNOUNCE
SitemapPhoneSpector | Sztorm stulecia / Storm of ... | エレクトロニクス RUIMIO Espejo de Maquillaje LED Luz Cosmético 7X Aumento Ajustable con Ventosa | El Objetivo | Gautama Buddha