Andhadhun (2018) Hindi - 720p - PreDVDRip - x264 - 1.4GB - AAC - ...

  • Category Movies
  • Type Bollywood
  • Language Hindi
  • Total size 1.4 GB
  • Uploaded By MovCr
  • Downloads 1264
  • Last checked 27 minutes ago
  • Date uploaded 5 hours ago
  • Seeders 64
  • Leechers 111

Andhadhun

ThrillerMysteryRomance

He sees what he shouldn't. She sees what he couldn't. So the question is, does he see it or not?

Infohash : DA6D8A094E3FEF4E1F5D17D9FA911BC99831A392

http://movcr.cc

Andhadhun (2018) Hindi - 720p - PreDVDRip - x264 - 1.4GB - AAC - MovCr


Video
ID : 1
Format : AVC
Format/Info : Advanced Video Codec
Format profile : [email protected]
Format settings : CABAC / 4 Ref Frames
Format settings, CABAC : Yes
Format settings, RefFrames : 4 frames
Codec ID : V_MPEG4/ISO/AVC
Duration : 2 h 0 min
Bit rate : 1 489 kb/s
Width : 1 280 pixels
Height : 544 pixels
Display aspect ratio : 2.35:1
Frame rate mode : Constant
Frame rate : 25.000 FPS
Color space : YUV
Chroma subsampling : 4:2:0
Bit depth : 8 bits
Scan type : Progressive
Bits/(Pixel*Frame) : 0.086
Stream size : 1.26 GiB (92%)
Title : www.MovCr.cc
Writing library : x264 core 155 r2901 7d0ff22
Encoding settings : cabac=1 / ref=1 / deblock=1:0:0 / analyse=0x3:0x113 / me=hex / subme=2 / psy=1 / psy_rd=1.00:0.00 / mixed_ref=0 / me_range=16 / chroma_me=1 / trellis=0 / 8x8dct=1 / cqm=0 / deadzone=21,11 / fast_pskip=1 / chroma_qp_offset=0 / threads=12 / lookahead_threads=4 / sliced_threads=0 / nr=0 / decimate=1 / interlaced=0 / bluray_compat=0 / constrained_intra=0 / bframes=3 / b_pyramid=2 / b_adapt=1 / b_bias=0 / direct=1 / weightb=1 / open_gop=0 / weightp=1 / keyint=250 / keyint_min=25 / scenecut=40 / intra_refresh=0 / rc_lookahead=10 / rc=abr / mbtree=1 / bitrate=1489 / ratetol=1.0 / qcomp=0.60 / qpmin=0 / qpmax=69 / qpstep=4 / vbv_maxrate=62500 / vbv_bufsize=78125 / nal_hrd=none / filler=0 / ip_ratio=1.40 / aq=1:1.00
Default : Yes
Forced : No
Color range : Limited
Color primaries : BT.601 PAL
Transfer characteristics : BT.709
Matrix coefficients : BT.601

Audio
ID : 2
Format : AAC LC
Format/Info : Advanced Audio Codec Low Complexity
Codec ID : A_AAC-2
Duration : 2 h 0 min
Bit rate : 128 kb/s
Channel(s) : 2 channels
Channel layout : L R
Sampling rate : 48.0 kHz
Frame rate : 46.875 FPS (1024 SPF)
Compression mode : Lossy
Delay relative to video : -21 ms
Stream size : 111 MiB (8%)
Title : www.MovCr.cc
Default : Yes
Forced : No

Menu
00:00:00.000 : en:Chapter 1
01:05:27.320 : en:Chapter 2






Files:

  • [MovCr.cc] - Andhadhun (2018) Hindi - 720p - PreDVDRip - x264 - 1.4GB - AAC - MovCr.mkv (1.4 GB)

There are currently no comments. Feel free to leave one :)

Code:

  • http://retracker.mgts.by:80/announce
  • http://retracker.telecom.by:80/announce
  • http://t.nyaatracker.com:80/announce
  • http://tracker.city9x.com:2710/announce
  • http://tracker.electro-torrent.pl:80/announce
  • udp://bt.xxx-tracker.com:2710/announce
  • udp://retracker.lanta-net.ru:2710/announce
  • udp://thetracker.org:80/announce
  • udp://tracker.coppersurfer.tk:6969/announce
  • udp://182.176.139.129:6969/announce
  • udp://5.79.83.193:6969/announce
  • udp://9.rarbg.me:2790/announce
  • udp://9.rarbg.to:2730/announce
  • udp://public.popcorn-tracker.org:6969/announce
  • udp://tracker.opentrackr.org:1337/announce
  • udp://tracker.internetwarriors.net:1337/announce
  • udp://tracker.coppersurfer.tk:6969/announce
SitemapRazvedchitsy 1x01 Razvedchitsy 1x01 | The New Fred and Barney Show | Global 2012 Dbq Essay Nanatsu no Taizai 188 | Drifters (2013) | The Killing