1971 Beyond Borders (2018) 720p UnCut Hindi Dubbed (Org) HDRip x2...

  • Category Movies
  • Type HD
  • Language Hindi
  • Total size 1.2 GB
  • Uploaded By shmasti
  • Downloads 132
  • Last checked 5 minutes ago
  • Date uploaded 15 hours ago
  • Seeders 8
  • Leechers 9

Infohash : DDD7EE999345EA08D00C60B626D8912CE895C7B4



General
Complete name : 1971 Beyond Borders (2018) 720p UnCut Hindi Dubbed (Org) HDRip x264 AAC by Full4movies.mkv
Format : Matroska
Format version : Version 4 / Version 2
File size : 1.18 GiB
Duration : 2 h 14 min
Overall bit rate : 1 255 kb/s
Movie name : www.Full4movies.co
Encoded date : UTC 2018-10-03 17:31:34
Writing application : mkvmerge v8.1.0 ('Psychedelic Postcard') 32bit
Writing library : libebml v1.3.1 + libmatroska v1.4.2

Video
ID : 1
Format : AVC
Format/Info : Advanced Video Codec
Format profile : [email protected]
Format settings, CABAC : Yes
Format settings, RefFrames : 4 frames
Codec ID : V_MPEG4/ISO/AVC
Duration : 2 h 14 min
Bit rate : 1 133 kb/s
Width : 1 280 pixels
Height : 544 pixels
Display aspect ratio : 2.35:1
Frame rate mode : Constant
Frame rate : 25.000 FPS
Color space : YUV
Chroma subsampling : 4:2:0
Bit depth : 8 bits
Scan type : Progressive
Bits/(Pixel*Frame) : 0.065
Stream size : 1.06 GiB (90%)
Writing library : x264 core 155 r2901 7d0ff22
Default : Yes
Forced : No
Color range : Limited
Color primaries : BT.709
Transfer characteristics : BT.709
Matrix coefficients : BT.709

Audio
ID : 2
Format : AAC
Format/Info : Advanced Audio Codec
Format profile : LC
Codec ID : A_AAC
Duration : 2 h 14 min
Bit rate : 127 kb/s
Channel(s) : 2 channels
Channel positions : Front: L R
Sampling rate : 44.1 kHz
Frame rate : 43.066 FPS (1024 SPF)
Compression mode : Lossy
Delay relative to video : -46 ms
Stream size : 122 MiB (10%)
Language : Hindi
Default : Yes
Forced : No

Screen Shoots

Files:

  • 1971 Beyond Borders (2018) 720p UnCut Hindi Dubbed (Org) HDRip x264 AAC by Full4movies.mkv (1.2 GB)

There are currently no comments. Feel free to leave one :)

Code:

  • udp://tracker.coppersurfer.tk:6969/announce
  • udp://tracker.opentrackr.org:1337/announce
  • udp://9.rarbg.me:2710/announce
  • udp://tracker.torrent.eu.org:451/announce
  • udp://open.stealth.si:80/announce
  • udp://public.popcorn-tracker.org:6969/announce
  • udp://p4p.arenabg.ch:1337/announce
  • udp://tracker.zer0day.to:1337/announce
  • udp://tracker.pirateparty.gr:6969/announce
  • udp://tracker.leechers-paradise.org:6969/announce
  • udp://tracker.tiny-vps.com:6969/announce
  • udp://bt.firebit.co.uk:6969/announce
  • udp://inferno.demonoid.pw:3397/announce
  • udp://shadowshq.yi.org:6969/announce
  • udp://9.rarbg.to:2780/announce
SitemapGlobal Warming - 912 Words | Spoken Word | أفلام أجنبية أفلام مغامرات Web Dl فيلم Pocketman and Cargoboy 2018 مترجم Happy Birthday Hannah | Star Trek 20092009 8.0 | Watch now!