The Quest Of Alain Ducasse 2018 Movies 720p HDRip x264 5.1 ESubs ...

  • Category Movies
  • Type HD
  • Language English
  • Total size 1.1 GB
  • Uploaded By nehalpuja
  • Downloads 2
  • Last checked 7 minutes ago
  • Date uploaded 2 days ago
  • Seeders 2
  • Leechers 3

The Quest of Alain Ducasse

Documentary

What can be the quest of Alain Ducasse, the little boy of the Landes now become the chef and most recognized mentor of cooking in the world? What is a man looking for who already seems to have everything? 23 restaurants in the world, 18 Michelin stars, Alain Ducasse never ceases to create addresses that appeal to our time, to build schools, to push the boundaries of his craft to new horizons, his curiosity has no limit. He traveled the world relentlessly, for to him cooking was an infinite universe. This public man, however secret, accepted to be followed for nearly two years, thus opening us the doors of his universe, in perpetual evolution.

Infohash : A94CD00B6D7933A6BCCBCFBEE13CDD2B72411403

The Quest Of Alain Ducasse 2018 Movies 720p HDRip x264 5.1 ESubs with Sample ☻rDX☻
===============================================================================================

SCREEN SHOTS:



or

http://iphonehosting.eu/2018/9/a/gas/1.html

File size : 1.09 GiB
Duration : 1 h 24 min
Overall bit rate : 1 861 kb/s
Movie name : The Quest Of Alain Ducasse 2018 Movies 720p HDRip x264 5.1 ESubs ☻rDX☻

Video
ID : 2
Format : AVC
Format/Info : Advanced Video Codec
Format profile : [email protected]
Format settings, CABAC : Yes
Format settings, ReFrames : 2 frames
Format settings, GOP : M=1, N=12
Codec ID : V_MPEG4/ISO/AVC
Duration : 1 h 24 min
Bit rate mode : Constant
Bit rate : 1 222 kb/s
Width : 1 280 pixels
Height : 694 pixels
Display aspect ratio : 1.85:1
Frame rate mode : Constant
Frame rate : 23.976 (24000/1001) FPS
Color space : YUV
Chroma subsampling : 4:2:0
Bit depth : 8 bits
Scan type : Progressive
Bits/(Pixel*Frame) : 0.057
Stream size : 712 MiB (64%)
Title : ☻rDX☻
Default : Yes
Forced : No

Audio
ID : 1
Format : E-AC-3
Format/Info : Enhanced Audio Coding 3
Format settings, Endianness : Big
Codec ID : A_EAC3
Duration : 1 h 24 min
Bit rate mode : Constant
Bit rate : 640 kb/s
Channel(s) : 6 channels
Channel positions : Front: L C R, Side: L R, LFE
Sampling rate : 48.0 kHz
Frame rate : 187.500 FPS (256 spf)
Compression mode : Lossy
Stream size : 385 MiB (34%)
Title : ☻rDX☻
Language : English
Default : Yes
Forced : No

Text
ID : 3
Format : UTF-8
Codec ID : S_TEXT/UTF8
Codec ID/Info : UTF-8 Plain Text
Title : ☻rDX☻
Language : English
Default : Yes
Forced : No

http://www.imdb.com/title/tt7317494/

Files:

The Quest Of Alain Ducasse 2018 Movies 720p HDRip x264 5.1 ESubs with Sample ☻rDX☻
  • Sample ~ The Quest Of Alain Ducasse 2018 Movies 720p HDRip x264 5.1 ESubs ☻rDX☻.mkv (10.0 MB)
  • The Quest Of Alain Ducasse 2018 Movies 720p HDRip x264 5.1 ESubs ☻rDX☻.mkv (1.1 GB)

There are currently no comments. Feel free to leave one :)

Code:

  • udp://tracker.coppersurfer.tk:6969/announce
  • udp://tracker.leechers-paradise.org:6969/announce
  • udp://tracker.pirateparty.gr:6969/announce
  • udp://eddie4.nl:6969/announce
  • udp://tracker.zer0day.to:1337/announce
  • udp://9.rarbg.me:2710/announce
  • udp://9.rarbg.to:2710/announce
  • udp://public.popcorn-tracker.org:6969/announce
  • udp://p4p.arenabg.ch:1337/announce
  • udp://tracker.vanitycore.co:6969/announce
  • udp://ipv4.tracker.harry.lu:80/announce
  • udp://tracker.opentrackr.org:1337/announce
  • udp://p4p.arenabg.com:1337/announce
  • udp://shadowshq.yi.org:6969/announce
SitemapFrankreich | Non-Franchised Small Business Analysis: Evaluating New Business Opportunities | 9GAG: Best Funny GIFs Pics APK Full Version Chính Các Thiết Bị | Dotty Fish Baby Toddler Infant Knitted Legging Small 6M+ Medium 12M+ Large 24M+ | Grand Design