Karwaan.(2018).HDRip.720p.Hindi.x264.AAC.-.Teamtelly

  • Category Movies
  • Type Bollywood
  • Language English
  • Total size 1.0 GB
  • Uploaded By LatestHDM
  • Downloads 31450
  • Last checked 1 day ago
  • Date uploaded 5 days ago
  • Seeders 414
  • Leechers 204

Karwaan

AdventureComedy

Avinash, a dejected soul stuck in a dead-end job shares a strange relationship with his father. He holds him responsible for crushing his dreams. However, he is left pondering upon this longstanding hatred when he hears of his father’s untimely demise.

Infohash : 10BBD87112E33F3E7906642B7B0A68444879C6E0





Official Website http://Tellytorrent.Net



Watch Online & Download in Small Size http://LatestHD.net



General
Unique ID                   : 134620217435054540484735642441754923936 (0x6546E92963CE30DE305E0BB7B710D3A0)
Complete name               : C:\Users\latesthd\Downloads\Video\LatestHDmovies.Org - Karwaan.(2018).HDRip.720p.Hindi.x264.AAC.-.LatestHDmovies.mkv
Format                      : Matroska
Format version              : Version 4 / Version 2
File size                   : 1.01 GiB
Duration                    : 1 h 53 min
Overall bit rate            : 1 267 kb/s
Movie name                  : LatestHDmovies.Org - Karwaan (2018) 720p Hindi
Encoded date                : UTC 2018-09-30 22:53:13
Writing application         : mkvmerge v26.0.0 ('In The Game') 64-bit
Writing library             : libebml v1.3.6 + libmatroska v1.4.9

Video
ID                          : 1
Format                      : AVC
Format/Info                 : Advanced Video Codec
Format profile              : [email protected]
Format settings             : CABAC / 1 Ref Frames
Format settings, CABAC      : Yes
Format settings, ReFrames   : 1 frame
Format settings, GOP        : M=1, N=60
Codec ID                    : V_MPEG4/ISO/AVC
Duration                    : 1 h 53 min
Bit rate                    : 1 137 kb/s
Width                       : 1 280 pixels
Height                      : 546 pixels
Display aspect ratio        : 2.35:1
Frame rate mode             : Constant
Frame rate                  : 24.000 FPS
Color space                 : YUV
Chroma subsampling          : 4:2:0
Bit depth                   : 8 bits
Scan type                   : Progressive
Bits/(Pixel*Frame)          : 0.068
Stream size                 : 926 MiB (90%)
Title                       : LatestHDmovies.Org
Default                     : Yes
Forced                      : No
Color range                 : Limited
Color primaries             : BT.709
Transfer characteristics    : BT.709
Matrix coefficients         : BT.709

Audio
ID                          : 2
Format                      : AAC LC
Format/Info                 : Advanced Audio Codec Low Complexity
Codec ID                    : A_AAC-2
Duration                    : 1 h 53 min
Bit rate                    : 128 kb/s
Channel(s)                  : 2 channels
Channel layout              : L R
Sampling rate               : 44.1 kHz
Frame rate                  : 43.066 FPS (1024 SPF)
Compression mode            : Lossy
Stream size                 : 104 MiB (10%)
Title                       : LatestHDmovies.Org
Language                    : Hindi
Default                     : Yes
Forced                      : No










Files:

  • LatestHDmovies.Org - Karwaan.(2018).HDRip.720p.Hindi.x264.AAC.-.LatestHDmovies.mkv (1.0 GB)

Comments

Code:

  • udp://tracker.coppersurfer.tk:6969/announce
  • udp://tracker.pirateparty.gr:6969/announce
  • udp://shadowshq.yi.org:6969/announce
  • udp://eddie4.nl:6969/announce
  • udp://tracker.leechers-paradise.org:6969/announce
  • udp://tracker.opentrackr.org:1337/announce
  • udp://p4p.arenabg.ch:1337/announce
  • udp://p4p.arenabg.com:1337/announce
  • udp://9.rarbg.me:2710/announce
  • udp://9.rarbg.to:2710/announce
  • udp://ipv4.tracker.harry.lu:80/announce
  • udp://public.popcorn-tracker.org:6969/announce
  • udp://tracker.opentrackr.org:1337/announce
SitemapVersione mobile | 體育競技 | Stem Cell Cities Skylines Update v1.06-CODEX | iPhone KAPOT gooien + WASABI snuiven? - HOE VER GA JIJ? | Is Computer A Blessing Or A Menace?